阿有影视

查看: 4222|回复: 3

[百度云][ATV][1991][胜者为王][陈庭威 吴绮莉 吕颂贤][22集全][国粤双语中字][ts 单集约1.1GB][卫视卡视台]

[复制链接]

32

主题

37

帖子

203

积分

中级会员

Rank: 3Rank: 3

积分
203
发表于 2020-3-18 20:47:27 | 显示全部楼层 |阅读模式

[attach]5798[/attach]


◎译  名 Who is The Winner
◎片  名 胜者为王
◎年  代 1991
◎产  地 香港
◎出品公司  香港亚洲电视
◎类  别 剧情
◎语  言 国/粤语
◎上映日期 1991-09-02(香港)
◎豆瓣评分 8.3/10 from 2,027 users
◎豆瓣链接 https://movie.douban.com/subject/2294258/
◎集  数 22
◎片  长 43分钟
◎导  演 袁再显 Sampson Yuen
◎主  演 陈庭威 Ting-Wai Chan
      秦沛 Paul Chun
      吕颂贤 Jackie Lui Chung-yin
      万绮雯 Yee-Man Man
      雪梨 Lei Suet
      李香琴 Heung Kam Lee

◎简  介

  赌坛一代枭雄聂万龙(秦沛饰)不但赌术精湛,而且善用谋略,在赌场上百战百胜,无人能及。菜贩陈金凤(李香琴饰)嗜赌成性,而其子石志康(陈庭威饰)却对赌博毫无兴趣。因缘巧合,石志康被赌王聂万龙发现,在其赌场工作。偶然机会,石志康认识了前赌王蒋真(高雄饰)。蒋真教会他世界各种赌 术,悉心调教和培养他,石志康的赌术日益提高。其后石志康又得赌痴孙一峰(张铮饰)教授,赌术大有进步。然而蒋真败在聂万龙手下,含冤而死。不久,其子蒋百祺(吕颂贤饰)赌术镇压全场,前来一报杀父之仇,他更不惜故意接近聂万龙之女聂希桐(吴绮莉饰)。适逢世界赌王比赛,一场血雨腥风的赌坛争斗一触即发。
  香港亚洲电视于1991年制作的赌场风云大戏《胜者为王》,由陈庭威、吴绮莉、吕颂贤、万绮雯、秦沛、雪梨、李香琴等领衔主演。本剧集续集有《胜者为王Ⅱ天下无敌》和《胜者为王Ⅲ王者之战》。



引用
General
ID                             : 1 (0x1)
Complete name                 勝者為王1卡式台雙語中字\01.ts
Format                         : MPEG-TS
File size                      : 1.24 GiB
Duration                       : 44 min 8 s
Overall bit rate mode          : Variable
Overall bit rate               : 4 037 kb/s
Maximum Overall bit rate       : 35.5 Mb/s

Video
ID                             : 4113 (0x1011)
Menu ID                        : 1 (0x1)
Format                         : MPEG Video
Format version                 : Version 2
Format profile                 : [email protected]
Format settings, BVOP          : Yes
Format settings, Matrix        : Custom
Format settings, GOP           : M=3, N=15
Codec ID                       : 2
Duration                       : 44 min 8 s
Bit rate mode                  : Variable
Bit rate                       : 3 450 kb/s
Width                          : 704 pixels
Height                         : 576 pixels
Display aspect ratio           : 4:3
Frame rate                     : 25.000 FPS
Standard                       : PAL
Color space                    : YUV
Chroma subsampling             : 4:2:0
Bit depth                      : 8 bits
Compression mode               : Lossy
Bits/(Pixel*Frame)             : 0.340
Time code of first frame       : 00:00:00:00
Time code source               : Group of pictures header
GOP, Open/Closed               : Open
Stream size                    : 1.06 GiB (85%)

Audio #1
ID                             : 4352 (0x1100)
Menu ID                        : 1 (0x1)
Format                         : AC-3
Format/Info                    : Audio Coding 3
Mode extension                 : CM (complete main)
Format settings, Endianness    : Big
Codec ID                       : 129
Duration                       : 44 min 8 s
Bit rate mode                  : Constant
Bit rate                       : 192 kb/s
Channel(s)                     : 2 channels
Channel positions              : Front: L R
Sampling rate                  : 44.1 kHz
Frame rate                     : 28.711 FPS (1536 spf)
Bit depth                      : 16 bits
Compression mode               : Lossy
Stream size                    : 60.6 MiB (5%)
Language                       : Chinese国语

Audio #2
ID                             : 4353 (0x1101)
Menu ID                        : 1 (0x1)
Format                         : MPEG Audio
Format version                 : Version 1
Format profile                 : Layer 2
Codec ID                       : 4
Duration                       : 44 min 8 s
Bit rate mode                  : Constant
Bit rate                       : 192 kb/s
Channel(s)                     : 2 channels
Sampling rate                  : 48.0 kHz
Compression mode               : Lossy
Delay relative to video        : -23 ms
Stream size                    : 60.6 MiB (5%)
Language                       : Chinese粤语


[attach]5799[/attach]


百度网盘链接:https://pan.baidu.com/s/1vhV7QEsl8w5L_1MvOYf7mg
购买主题 已有 2 人购买  本主题需向作者支付 20 金钱 才能浏览
回复

使用道具 举报

0

主题

7

帖子

341

积分

中级会员

Rank: 3Rank: 3

积分
341
发表于 2020-5-26 19:26:17 | 显示全部楼层
謝謝樓主分享好片
回复

使用道具 举报

0

主题

4

帖子

25

积分

新手上路

Rank: 1

积分
25
发表于 2021-1-31 21:00:07 | 显示全部楼层
谢谢谢谢谢谢谢谢谢谢谢谢谢谢谢谢谢谢
回复

使用道具 举报

0

主题

13

帖子

1255

积分

金牌会员

Rank: 6Rank: 6

积分
1255
发表于 2021-4-27 15:31:20 | 显示全部楼层
好资源,收藏一下
回复

使用道具 举报

您需要登录后才可以回帖 登录 | 立即注册

本版积分规则

Archiver|手机版|小黑屋|阿有影视

GMT+8, 2022-11-28 23:34 , Processed in 0.106637 second(s), 21 queries .

Powered by Discuz! X3.4

© 2001-2017 Comsenz Inc.

快速回复 返回顶部 返回列表